5

Is ffmpeg incorrectly interpreting .aif files?

view full story
linux-howto

http://serverfault.com – Being on an Ubuntu 10.04 server i installed the ffmpeg packages with apt. ffmpeg is working afterwards, and doing as it should. Almost. For testing purposes i uploaded a few audiofiles. One of them, an aif file, is not being correctly interpreted. While on my workhorse (Mac SnowLeopard) ffmpeg tells the format as Stream #0.0: Audio: pcm_s24be, 44100 Hz, 2 channels, s32, 2116 kb/s my Ubuntu server says it is: Stream #0.0: Audio: pcm_s24be, 44100 Hz, stereo, s16, 2116 kb/s which is the wrong bitdepth. Ubuntu then fails to convert the file with the error message [pcm_s24be @ 0xcd4b580]in (HowTos)